[Login] or [Signup]
Login
Username:
Password:
[Signup]
[Recover Account]


Poll


You must be logged in to view polls



Torrent Details For "+18 The Punisher 2004 720p Esub BluRay Dual Audio English Hindi GOPISAHI"

+18 The Punisher 2004 720p Esub BluRay Dual Audio English Hindi GOPISAHI

Download this torrent | Magnet Download
Health:
Seeds: 0
Leechers: 0
Completed: 1,903 
Last Checked: 11-10-2018 05:08:33
External Torrent
Update Stats
Download Magnet


Poster


iMDB
Imdb Picture Title: The Punisher
Year: 2004
Runtime: 124 minutes
Votes: 134510
Rating: 6.5/10
Language: English
Country: USA, Germany
All Genres: Action, Adventure, Crime, Drama, Thriller
Plot Outline: An undercover FBI agent becomes a vigilante assassin and sets out to unleash his wrath upon the corrupt businessman who slaughtered his entire family at a reunion.
Tagline: This Is Not Revenge. It's Punishment!
Director: Jonathan Hensleigh
Writing By: Jonathan Hensleigh,Michael France,
Produced By: Ari Arad,Avi Arad,Anson Downes,Christopher Eberts,Linda Favila,Kevin Feige,Andreas Grosch,Gale Anne Hurd,Stan Lee,John Leonetti,Chris Roberts,Andreas Schmid,John H. Starke,Andrew Golov,Patrick Gunn,Amir Jacob Malin,Richard Saperstein,
Music: Carlo Siliotto
Cast:
A. Russell Andrews as Jimmy Weeks
Omar Avila as Joe Toro
James Carpinello as Bobby Saint / John Saint
Mark Collie as Harry Heck
Russell Durham Comegys as Tattooed Mike
Antoni Corone as T.J.
Rick Elmhurst as Bay News 9 Newscaster
Ben Foster as Spacker Dave
Michael Reardon as Toro Croupier
Laura Harring as Livia Saint
Trailers:
The Punisher (2004)
The Punisher


Watch-Free-HD     Download

Details
Name:+18 The Punisher 2004 720p Esub BluRay Dual Audio English Hindi GOPISAHI
Description:

Format                         : Matroska
Format version                 : Version 4 / Version 2
File size                      : 996 MiB
Duration                       : 2 h 3 min
Overall bit rate               : 1 128 kb/s
Movie name                     : The Punisher 2004

Video
Format                         : AVC
Codec ID                       : V_MPEG4/ISO/AVC
Duration                       : 2 h 3 min
Bit rate                       : 953 kb/s
Width                          : 1 280 pixels
Height                         : 544 pixels
Display aspect ratio           : 2.35:1
Frame rate mode                : Constant
Frame rate                     : 23.976 (24000/1001) FPS
Stream size                    : 842 MiB (84%)
Writing library                : x264

Audio #1
Format                         : AAC
Duration                       : 2 h 3 min
Bit rate                       : 85.0 kb/s
Channel(s)                     : 6 channels
Channel positions              : Front: L C R, Side: L R, LFE
Sampling rate                  : 44.1 kHz
Frame rate                     : 43.066 FPS (1024 SPF)
Stream size                    : 75.1 MiB (8%)
Language                       : English

Audio #2
Format                         : AAC
Duration                       : 1 h 56 min
Bit rate                       : 92.8 kb/s
Channel(s)                     : 6 channels
Channel positions              : Front: L C R, Side: L R, LFE
Sampling rate                  : 44.1 kHz
Frame rate                     : 43.066 FPS (1024 SPF)
Compression mode               : Lossy
Stream size                    : 77.1 MiB (8%)
Language                       : Hindi

Text
Language                       : English


Category:Movies > Hollywood Dub
Lang:Hindi
Total Size:996.31 MB
Info Hash:815b030a562004b0d0708c22629f7a3ff338417a
Added By:gopisahi
Date Added:25-12-2017 11:25:01
Views:2,041
Hits:474

Download Torrent

Ratings:Not Yet Rated (Log in to rate it)


Tracker:
http://ipv4.tracker.harry.lu/announce

This Torrent also has backup trackers
URLSeedersLeechersCompleted
http://ipv4.tracker.harry.lu/announce5238241
http://ipv4.tracker.harry.lu:80/announce5238241
http://163.172.180.68:80/announce5238241
http://t.nyaatracker.com/announce010
http://tracker.devil-torrents.pl:80/announce000
http://tracker.devil-torrents.pl/announce000
http://open.kickasstracker.com/announce370
http://163.172.180.68/announce5238241
http://t.nyaatracker.com:80/announce010
http://retracker.mgts.by:80/announce00579
http://45.33.11.224/announce22130
http://tracker.torrentyorg.pl:80/announce004
http://pt.lax.mx:80/announce555425


File List: 


Comments

No comments still posted

Powered by 10 Hamsters v2-svn -|- Page Generated In 0.560056 secs.
-|- RSS FEED
Theme By: Nikkbu