[Login] or [Signup]
Login
Username:
Password:
[Signup]
[Recover Account]


Poll


You must be logged in to view polls



Torrent Details For "Gold 2018 Hindi 720p DTHRip x264 AAC 5.1 { TaRa }.mkv"

Gold 2018 Hindi 720p DTHRip x264 AAC 5.1 { TaRa }.mkv

Download this torrent | Magnet Download
Health:
Seeds: 177
Leechers: 15
Completed: 5,688 
Last Checked: 09-11-2018 14:07:56
External Torrent
Update Stats
Download Magnet


Poster


iMDB
Imdb Picture Title: Gold
Year: 2018
Runtime: 151 minutes
Votes: 611
Rating: 8.8/10
Language: Hindi
Country: India
All Genres: Drama, History, Sport
Plot Outline: Set in 1948, the historic story of India's first Olympic medal post their independence.


Director: Reema Kagti
Writing By: Rajesh Devraj,Reema Kagti,Reema Kagti,Javed Akhtar,
Produced By: Farhan Akhtar,Vikesh Bhutani,Kassim Jagmagia,Firuzi Khan,Seher Latif,Shivani Saran,Ritesh Sidhwani,
Music: Sachin Sanghvi Jigar Saraiya
Cast:
Akshay Kumar as Tapan Das
Mouni Roy as Monobina Das
Kunal Kapoor as Samrat
Amit Sadh as Raghubir Pratap Singh
Vineet Kumar Singh as Imtiaz Shah
Sunny Kaushal as Himmat Singh
Nikita Dutta as Simran
Andrew Havill as Sir James Benson
Manjit Singh as Barry / Hockey Player
Christopher James Burton as Dutch Goaltender
Trailers:
Gold Teaser


Watch-Free-HD     Download

Details
Name:Gold 2018 Hindi 720p DTHRip x264 AAC 5.1 { TaRa }.mkv
Description:

Gold 2018 Hindi 720p DTHRip x264 AAC 5.1 { TaRa }.mkv
 

===================================================================
General
Complete name               : Gold 2018 Hindi 720p DTHRip x264 AAC 5.1 { TaRa }.mkv
Format                      : Matroska
Format version              : Version 4
File size                   : 1.18 GiB
Duration                    : 2 h 20 min
Overall bit rate            : 1 203 kb/s
===================================================================
Video
ID                          : 1
Format                      : AVC
Format/Info                 : Advanced Video Codec
Format profile              : [email protected]
Format settings             : CABAC / 4 Ref Frames
Format settings, CABAC      : Yes
Format settings, ReFrames   : 4 frames
Codec ID                    : V_MPEG4/ISO/AVC
Duration                    : 2 h 20 min
Bit rate                    : 1 000 kb/s
Width                       : 1 280 pixels
Height                      : 544 pixels
Display aspect ratio        : 2.35:1
Frame rate mode             : Constant
Frame rate                  : 25.000 FPS
Color space                 : YUV
Chroma subsampling          : 4:2:0
Bit depth                   : 8 bits
Scan type                   : Progressive
Bits/(Pixel*Frame)          : 0.057
Stream size                 : 1 013 MiB (84%)
Title                       : .....:::::: TaRa :::::.....
Language                    : Hindi
Default                     : Yes
Forced                      : No
===================================================================
Audio
ID                          : 2
Format                      : AAC LC
Format/Info                 : Advanced Audio Codec Low Complexity
Codec ID                    : A_AAC-2
Duration                    : 2 h 20 min
Bit rate                    : 192 kb/s
Channel(s)                  : 6 channels
Channel layout              : C L R Ls Rs LFE
Sampling rate               : 48.0 kHz
Frame rate                  : 46.875 FPS (1024 SPF)
Compression mode            : Lossy
Delay relative to video     : -80 ms
Stream size                 : 193 MiB (16%)
Title                       : .....:::::: TaRa :::::.....
Language                    : Hindi
Default                     : Yes
Forced                      : No
===================================================================



 
 
 
 
 
 
 
 
 
 
 
 












 



Category:Movies > Bollywood
Lang:Hindi
Total Size:1.18 GB
Info Hash:d73e44ef3e0e4fdeaf276e1635c9d99de65277b0
Added By:SkTaRa
Date Added:29-10-2018 07:41:36
Views:3,358
Hits:604

Download Torrent

Ratings:Not Yet Rated (Log in to rate it)

  


Tracker:
udp://tracker.coppersurfer.tk:6969/announce


File List: 


Comments

No comments still posted

Powered by 10 Hamsters v2-svn -|- Page Generated In 3.076570 secs.
-|- RSS FEED
Theme By: Nikkbu